[BT下载]舞蹈夏令营(4K版) Dance.Camp.2016.2160p.WEB-DL.4K.HD.AAC.H264-DEFCON 9GB

本站不提供「[BT下载]舞蹈夏令营(4K版) Dance.Camp.2016.2160p.WEB-DL.4K.HD.AAC.H264-DEFCON 9GB」下载,仅介绍「[BT下载]舞蹈夏令营(4K版) Dance.Camp.2016.2160p.WEB-DL.4K.HD.AAC.H264-DEFCON 9GB」,一起来讨论吧,做个好影评。
[BT下载]舞蹈夏令营(4K版) Dance.Camp.2016.2160p.WEB-DL.4K.HD.AAC.H264-DEFCON 9GB

[2016] [欧美] [喜剧] [4K] [BT下载]舞蹈夏令营(4K版) Dance.Camp.2016.2160p.WEB-DL.4K.HD.AAC.H264-DEFCON 9GB --> ◎译  名 舞蹈夏令营 ◎片  名 Dance Camp ◎年  代 2016 ◎国  家 美国 ◎类  别 喜剧/剧情 ◎语  言 英语 ◎字  幕 N/A ◎IMDb评分 3.6/10 from 219 users ◎IMDB链接 http://www.imdb.com/title/tt5017928/ ◎片  长 1h 23mn ◎导  演 Bert & Bertie ◎主  演 Brandon Perea ...Kenton Richard Balin ...Bernie Mary Catalano ...Gloria Meg DeAngelis ...Cheyenne Bea Carly Erenio ...Charm Amymarie Gaertner ...Vanessa Annie Hamilton ...Emily 纳吉·杰特 Nadji Jeter ...Hunter Jordyn Jones ...Yolo Anita Kalathara ...Sanjana Philip Labes   ...Jeb Laird Macintosh ..Judge Keating Jake Paul ...Lance Sandra Rosko ...Dancer Kassandra Vargas ...Dancer ◎简  介 Hunter gets busted by his mom for throwing a party - and she sends him off to a dance camp, where he meets a bunch of eclectic misfits. Although he first refuses to take the camp seriously, he's eventually inspired to take down a rival dance group led by Lance and along the way also falls in love with Cheyenne. Format : MPEG-4 Format profile : QuickTime Codec ID : qt 0000.02 (qt ) File size : 9.06 GiB Duration : 1h 23mn Overall bit rate mode : Variable Overall bit rate : 15.5 Mbps Writing application : Lavf55.33.100 Video ID : 1 Format : AVC Format/Info : Advanced Video Codec Format profile : [email protected] Format settings, CABAC : No Format settings, ReFrames : 1 frame Codec ID : avc1 Codec ID/Info : Advanced Video Coding Duration : 1h 23mn Duration_FirstFrame : -23ms Bit rate : 16.0 Mbps Width : 3 840 pixels Height : 2 160 pixels Display aspect ratio : 16:9 Frame rate mode : Constant Frame rate : 30.000 fps Color space : YUV Chroma subsampling : 4:2:0 Bit depth : 8 bits Scan type : Progressive Bits/(Pixel*Frame) : 0.064 Stream size : 8.92 GiB (98%) Writing library : x264 core 132 Encoding settings : cabac=0 / ref=1 / deblock=1:0:0 / analyse=0x1:0x111 / me=hex / subme=2 / psy=1 / psy_rd=1.00:0.00 / mixed_ref=0 / me_range=16 / chroma_me=1 / trellis=1 / 8x8dct=0 / cqm=0 / deadzone=21,11 / fast_pskip=1 / chroma_qp_offset=0 / threads=2 / lookahead_threads=1 / sliced_threads=0 / nr=0 / decimate=1 / interlaced=0 / bluray_compat=0 / constrained_intra=0 / bframes=0 / weightp=0 / keyint=25 / keyint_min=13 / scenecut=40 / intra_refresh=0 / rc=abr / mbtree=0 / bitrate=16000 / ratetol=0.1 / qcomp=0.60 / qpmin=1 / qpmax=35 / qpstep=2 / ip_ratio=1.40 / aq=1:1.00 Language : English Audio ID : 2 Format : AAC Format/Info : Advanced Audio Codec Format profile : LC Codec ID : 40 Duration : 1h 23mn Bit rate mode : Variable Bit rate : 227 Kbps Maximum bit rate : 256 Kbps Channel(s) : 2 channels Channel positions : Front: L R Sampling rate : 44.1 KHz Frame rate : 43.066 fps (1024 spf) Compression mode : Lossy Stream size : 136 MiB (1%) Language : English Default : Yes Alternate group : 1 Tip: Use a VPN Service to protect your privacy. Full encryption. No traffic logs. Ju

本站不提供任何下载。仅提供介绍,请支持正版。