[BT下载]森林鲁滨逊 RRRrrrr.2004.FRENCH.720p.WEB-DL.DD5.1.H264-FGT 2.97GB

本站不提供「[BT下载]森林鲁滨逊 RRRrrrr.2004.FRENCH.720p.WEB-DL.DD5.1.H264-FGT 2.97GB」下载,仅介绍「[BT下载]森林鲁滨逊 RRRrrrr.2004.FRENCH.720p.WEB-DL.DD5.1.H264-FGT 2.97GB」,一起来讨论吧,做个好影评。
[BT下载]森林鲁滨逊 RRRrrrr.2004.FRENCH.720p.WEB-DL.DD5.1.H264-FGT 2.97GB

[更 早] [欧美] [喜剧] [WEB-720P] [BT下载]森林鲁滨逊 RRRrrrr.2004.FRENCH.720p.WEB-DL.DD5.1.H264-FGT 2.97GB --> ◎译  名 森林鲁滨逊 ◎片  名 RRRrrrr!!! ◎年  代 2004 ◎国  家 法国 ◎类  别 喜剧/犯罪 ◎语  言 法语 ◎上映日期 2004-01-28 ◎IMDb评分  5.8/10 from 9,957 users ◎IMDb链接  http://www.imdb.com/title/tt0357111/ ◎豆瓣评分 8.2/10 from 384 users ◎豆瓣链接 https://movie.douban.com/subject/1308849/ ◎BT之家整理 http://www.btbbt.cc ◎片  长 94 分钟 ◎导  演 阿兰·夏巴 Alain Chabat ◎主  演 玛琳娜·佛伊丝 Marina Foïs Gérard Depardieu Damien Jouillerot ◎简  介 法国2004年最新冒险喜剧片,杰拉尔德帕迪约主演的法国版《石头族乐园》,法国本土票房第三位。讲述的是37,000年前,有两个部落相互邻近,他们和平共处。“净发部"过着宁静祥和的日子,小心守护着洗发水的制作秘方。而“污衣部"满嘴牢骚,抓挠个不停。一天晚上,一起谋杀案打破了“净发部"的宁静。这是人类史上的第一次,以前从来没有人杀过人(当然,在这个案子里,被杀的是个女人)。为什幺要杀人呢?是人难免一死的。谁能解开这个迷?而且,如果这只是一个恐怖的开始怎幺办?这部史前黑色喜剧片讲述了两个完全不同的部落的冒险经历。这影片已经在欧洲上映,据说是个充满冒险精神的搞笑电影,最受欢迎的是片中有各式各样的史前动物出现,可爱得很。 Video ID                                       : 1 Format                                   : AVC Format/Info                              : Advanced Video Codec Format profile                           : [email protected] Format settings, CABAC                   : No Format settings, ReFrames                : 2 frames Format settings, GOP                     : N=1 Codec ID                                 : V_MPEG4/ISO/AVC Duration                                 : 1h 38mn Bit rate                                 : 3 849 Kbps Width                                    : 1 280 pixels Height                                   : 544 pixels Display aspect ratio                     : 2.35:1 Frame rate mode                          : Constant Frame rate                               : 24.000 fps Color space                              : YUV Chroma subsampling                       : 4:2:0 Bit depth                                : 8 bits Scan type                                : Progressive Bits/(Pixel*Frame)                       : 0.230 Stream size                              : 2.65 GiB (89%) Title                                    : RRRrrrr.2004.FRENCH.720p.WEB-DL.DD5.1.H264-FGT Language                                 : French Default                                  : Yes Forced                                   : No Color range                              : Limited Color primaries                          : BT.709 Transfer characteristics                 : BT.709 Matrix coefficients                      : BT.709 Audio ID                                       : 2 Format                                   : AC-3 Format/Info                              : Audio Coding 3 Mode extension                           : CM (complete main) Format settings, Endianness              : Big Codec ID                                 : A_AC3 Duration                                 : 1h 38mn Bit rate mode                            : Constant Bit rate                                 : 384 Kbps Channel(s)                               : 6 channels Channel positions                        : Front: L C R, Side: L R, LFE Sampling rate                            : 48.0 KHz Frame rate                               : 31.250 fps (1536 spf) Compression mode                         : Lossy Stream size                              : 270 MiB (9%) Title                                    : RRRrrrr.2004.FRENCH.720p.WEB-DL.DD5.1.H264-FGT Language                                 : French Default                                  : Yes Forced                                   : No Text ID                                       : 3 Format                                   : UTF-8 Codec ID                                 : S_TEXT/UTF8 Codec ID/Info                            : UTF-8 Plain Text Language                                 : English Default                                  : Yes Forced                                   : Yes

本站不提供任何下载。仅提供介绍,请支持正版。