[BT下载]瀕死前的6分鐘 6.Minutes.of.Death.2013.1080p.BluRay.x264.DTS-FGT 4.31GB

本站不提供「[BT下载]瀕死前的6分鐘 6.Minutes.of.Death.2013.1080p.BluRay.x264.DTS-FGT 4.31GB」下载,仅介绍「[BT下载]瀕死前的6分鐘 6.Minutes.of.Death.2013.1080p.BluRay.x264.DTS-FGT 4.31GB」,一起来讨论吧,做个好影评。
[BT下载]瀕死前的6分鐘 6.Minutes.of.Death.2013.1080p.BluRay.x264.DTS-FGT 4.31GB

[2013] [欧美] [恐怖] [BD-1080P] [BT下载]瀕死前的6分鐘 6.Minutes.of.Death.2013.1080p.BluRay.x264.DTS-FGT 4.31GB --> ◎译  名 瀕死前的6分鐘 ◎片  名 6 minutes of death ◎年  代 2014 ◎国  家 美国 ◎类  别 恐怖/科幻 ◎语  言 英语 ◎上映日期 2013-05-17 ◎IMDb评分  5.6/10 from 336 users ◎IMDb链接  http://www.imdb.com/title/tt3377798/ ◎BT之家整理 http://www.btbbt.cc ◎片  长 70 min ◎导  演 Joseph Ciminera ◎主  演 Julia Gregorio Joshua Pickel Joseph Ciminera ◎简  介 In a small town circa 1860 small pox takes the life of a little boy. He enters a world that will get him prepped and re-incarnated for his next life. The library is a second chance| a place to select a storybook life and be reborn. The evil darkness takes the boy into lower earth. All the corners of hell are fighting to keep him from reaching the next level. Four guardians are sent to rescue him but they only have 30 minutes. Video ID                                       : 1 Format                                   : AVC Format/Info                              : Advanced Video Codec Format profile                           : [email protected] Format settings, CABAC                   : Yes Format settings, ReFrames                : 4 frames Codec ID                                 : V_MPEG4/ISO/AVC Duration                                 : 1h 10mn Bit rate                                 : 7 376 Kbps Width                                    : 1 920 pixels Height                                   : 1 080 pixels Display aspect ratio                     : 16:9 Frame rate mode                          : Constant Frame rate                               : 23.976 (24000/1001) fps Color space                              : YUV Chroma subsampling                       : 4:2:0 Bit depth                                : 8 bits Scan type                                : Progressive Bits/(Pixel*Frame)                       : 0.148 Stream size                              : 3.66 GiB (85%) Writing library                          : x264 core 146 r2538 121396c Encoding settings                        : cabac=1 / ref=4 / deblock=1:-3:-3 / analyse=0x3:0x133 / me=umh / subme=8 / psy=1 / psy_rd=1.00:0.15 / mixed_ref=1 / me_range=16 / chroma_me=1 / trellis=1 / 8x8dct=1 / cqm=0 / deadzone=21,11 / fast_pskip=0 / chroma_qp_offset=-3 / threads=12 / lookahead_threads=2 / sliced_threads=0 / nr=0 / decimate=1 / interlaced=0 / bluray_compat=0 / constrained_intra=0 / bframes=3 / b_pyramid=2 / b_adapt=2 / b_bias=0 / direct=3 / weightb=1 / open_gop=0 / weightp=2 / keyint=240 / keyint_min=24 / scenecut=40 / intra_refresh=0 / rc_lookahead=50 / rc=crf / mbtree=1 / crf=20.0 / qcomp=0.60 / qpmin=0 / qpmax=69 / qpstep=4 / ip_ratio=1.40 / aq=1:1.00 Language                                 : English Default                                  : Yes Forced                                   : No Audio ID                                       : 2 Format                                   : DTS Format/Info                              : Digital Theater Systems Mode                                     : 16 Format settings, Endianness              : Big Codec ID                                 : A_DTS Duration                                 : 1h 10mn Bit rate mode                            : Constant Bit rate                                 : 1 152 Kbps Channel(s)                               : 6 channels Channel positions                        : Front: L C R, Side: L R, LFE Sampling rate                            : 48.0 KHz Frame rate                               : 93.750 fps (512 spf) Bit depth                                : 24 bits Compression mode                         : Lossy Stream size                              : 585 MiB (13%) Language                                 : English Default                                  : Yes Forced                                   : No Menu 00:00:00.000                             : en:00:00:00.000 00:09:59.974                             : en:00:09:59.974 00:19:59.990                             : en:00:19:59.990 00:29:59.965                             : en:00:29:59.965 00:39:59.981                             : en:00:39:59.981 00:49:59.997                             : en:00:49:59.997 00:59:59.971                             : en:00:59:59.971 01:09:59.987                             : en:01:09:59.987

本站不提供任何下载。仅提供介绍,请支持正版。