[BT下载] 碟中谍5:神秘国度 Mission:Impossible - Rogue Nation .2015.4K.AVC.DTS-HD5.1 45.8G

本站不提供「 [BT下载] 碟中谍5:神秘国度 Mission:Impossible - Rogue Nation .2015.4K.AVC.DTS-HD5.1 45.8G」下载,仅介绍「 [BT下载] 碟中谍5:神秘国度 Mission:Impossible - Rogue Nation .2015.4K.AVC.DTS-HD5.1 45.8G」,一起来讨论吧,做个好影评。
	[BT下载] 碟中谍5:神秘国度 Mission:Impossible - Rogue Nation .2015.4K.AVC.DTS-HD5.1 45.8G

[2015] [欧美] [动作] [4K] [BT下载] 碟中谍5:神秘国度 Mission:Impossible - Rogue Nation .2015.4K.AVC.DTS-HD5.1 45.8G --> 译  名 : 碟中谍5 : 神秘国度/职业特工队5:叛逆帝国(港)/不可能的任务:失控国度(台) 片  名 : Mission : Impossible - Rogue Nation 年  代 : 2015 国  家 : 美国 类  别 : 动作/惊悚/冒险 语  言 : 英语/西班牙语 音  频 :AC-3 5.1/DTS 5.1 视频尺寸 : 3840x2160 文件大小 : 45.7 GiB 上映日期 : 2015-09-08(中国大陆)/2015-07-31(美国) IMDb评分 : 7.5/10 from 161,126 users IMDb链接 : http://www.imdb.com/title/tt2381249/ 豆瓣评分 : 7.7/10 from 129,782 users 豆瓣链接 : http://movie.douban.com/subject/10727641/ 片  长 : 131分钟 导  演 : 克里斯托弗·麦奎里 Christopher McQuarrie 主  演 : 汤姆·克鲁斯 Tom Cruise 杰瑞米·雷纳 Jeremy Renner 西蒙·佩吉 Simon Pegg 丽贝卡·路易斯·弗格森 Rebecca Ferguson 文·瑞姆斯 Ving Rhames 西恩·哈里斯 Sean Harris 西蒙·迈克伯尼 Simon McBurney 张静初 Jingchu Zhang 汤姆·霍兰德 Tom Hollander 延斯·赫尔腾 Jens Hultén 亚历克·鲍德温 Alec Baldwin 亚历克·乌特戈夫 Alec Utgoff 赫敏·科菲尔德 Hermione Corfield 阿美莉嘉·奥利沃 America Olivo 拉斯科·阿特金斯 Lasco Atkins 肖恩·克罗宁 Sean Cronin 明格斯·约翰斯顿 Mingus Johnston 简介 : 资深特工伊森·亨特(汤姆·克鲁斯 Tom Cruise 饰)也有百密一疏时刻,他在接收最新任务时遭到神秘组织“辛迪加”的暗算落入对方手中。辛迪加是一支由全球各地前特工组成的秘密组织,此前一直被CIA视为空穴来风。在对方成员伊莎·福斯特(丽贝卡·弗格森 Rebecca Ferguson 饰)的帮助下,伊森逃出生天,并及时向威廉•布莱德(杰瑞米·雷纳 Jeremy Renner 饰)汇报了辛迪加确切存在的消息。然而此时布莱德的日子并不好过,他负责的IMF机构因俄罗斯核弹头等事件遭到CIA指控并责令解散。在得知该组织密谋刺杀奥地利总统时,伊森联系上了老搭档班吉·邓恩(西蒙·佩吉 Simon Pegg 饰)展开行动,并于谜样女郎伊莎再度相会。 接下来的一连串事件中,辛迪加的真面目逐渐揭开,而他们也终于显露出真实的目的...... General Unique ID : 180462453504819573047476087427146681188 (0x87C3CDE6E22AEE31BB641CCF33978B64) Complete name : Mission.Impossible.Rogue. Nation.2015.2160p.mkv Format : Matroska Format version : Version 4/Version 2 File size : 45.7GiB Duration : 2h 11mn Overall bit rate : 49.8 Mbps Movie name : Mission.Impossible.Rogue. Nation Encoded date : UTC 2015-11-30 14:59:50 Writing application : mkvmerge v8.2.0 ('World of Adventure') 64bit Writing library : libebml v1.3.1 + libmatroska v1.4.2 Video ID : 1 Format : AVC Format/Info : Advanced Video Codec Format profile : [email protected] Format settings, CABAC : Yes Format settings, ReFrames : 4 frames Codec ID : V_MPEG4/ISO/AVC Duration : 2h 11mn Width : 3840 pixels Height : 2160 pixels Display aspect ratio : 16:9 Frame rate mode : Constant Frame rate : 23.976 fps (24000/1001)fps Color space : YUV Chroma subsampling : 4:2:0 Bit depth : 8 bits Scan type : Progressive Title : Mission Impossible Rogue Nation Writing library : x264 core 148 r2597 e86f3a1 Encoding settings : cabac=1/ref=1/deblock=1:0:0/analyse=0x3:0x133/me=hex/subme=7/psy=1/ psy_rd=1.00:0.00/mixed_ref=0/me_range=16/chroma_me=1/trellis=1/8x8dct=1/cqm=0/ deadzone=21,11/fast_pskip=1/chroma_qp_offset=-2/threads=12 Language : English Default : Yes Forced : No Audio #1 ID : 2 Format : AC-3 Format/Info : Audio Coding 3 Mode extension : CM (complete main) Format settings, Endianness : Big Codec ID : A_AC3 Duration : 2h 11mn Bit rate mode : Constant Bit rate : 640 Kbps Channel(s) : 6 channels Channel positions : Front: L C R, Side: L R, LFE Sampling rate : 48.0 KHz Frame rate : 31.250 fps (1536 spf) Compression mode : Lossy Stream size : 602 MiB (1%) Title : AC3-HD 5.1 Language : Spanish Default : Yes Forced : Yes Audio #2 ID : 3 Format : DTS Format/Info : Digital Theater Systems Mode : 16 Format settings, Endianness : Big Codec ID : A_DTS Duration : 2h 11mn Bit rate mode : Constant Bit rate : 1509 Kbps Channel(s) : 6 channels Channel positions : Front: L C R, Side: L R, LFE Sampling rate : 48.0 KHz frame rate : 93.750 fps (512 spf) Bit depth : 24 bits Compression mode : Lossy Delay relative to video : 44ms Stream size : 1.39 GiB (3%) Title : DTS-HD 5.1 Language : English Default : No Forced : No

本站不提供任何下载。仅提供介绍,请支持正版。