[BT下载]兄弟之战 Brothers.War.2009.1080p.BluRay.x264.DTS-FGT 4.88GB

本站不提供「[BT下载]兄弟之战 Brothers.War.2009.1080p.BluRay.x264.DTS-FGT 4.88GB」下载,仅介绍「[BT下载]兄弟之战 Brothers.War.2009.1080p.BluRay.x264.DTS-FGT 4.88GB」,一起来讨论吧,做个好影评。
[BT下载]兄弟之战 Brothers.War.2009.1080p.BluRay.x264.DTS-FGT 4.88GB

[2009] [欧美] [战争] [BD-1080P] [BT下载]兄弟之战 Brothers.War.2009.1080p.BluRay.x264.DTS-FGT 4.88GB --> ◎译  名 兄弟之战 ◎片  名 Brother's War ◎年  代 2009 ◎国  家 美国 ◎类  别 历史/战争 ◎语  言 英语 ◎上映日期 2009-02-01 ◎IMDb评分  2.7/10 from 676 users ◎IMDb链接  http://www.imdb.com/title/tt0932661/ ◎豆瓣评分 4.8/10 from 30 users ◎豆瓣链接 https://movie.douban.com/subject/2979414/ ◎BT之家整理 http://www.btbbt.cc ◎导  演 Jerry Buteyn ◎主  演 Tino Struckmann 迈克尔·贝里曼 Michael Berryman 奥利弗·古鲁内尔 Olivier Gruner Hayley Carr Hugh Daly 杰克·迪米奇 Jack Dimich Adam Leadbeater Steve Holm Dylan Kenin ◎简  介 第二次世界大战后期,在东线正展开激烈的战斗,盟军和苏联红军正在向柏林挺进。丘吉尔担心苏联对战后欧洲格局的威胁越来越影响到盟国的利益,西方盟国发现斯大林政府暗中敌视亲西方的波兰流亡政府,并截获关于不允许流亡政府东山再起的情报。 Video ID                                       : 1 Format                                   : AVC Format/Info                              : Advanced Video Codec Format profile                           : [email protected] Format settings, CABAC                   : Yes Format settings, ReFrames                : 4 frames Codec ID                                 : V_MPEG4/ISO/AVC Duration                                 : 1h 39mn Bit rate                                 : 5 354 Kbps Width                                    : 1 920 pixels Height                                   : 1 080 pixels Display aspect ratio                     : 16:9 Frame rate mode                          : Constant Frame rate                               : 23.976 (24000/1001) fps Color space                              : YUV Chroma subsampling                       : 4:2:0 Bit depth                                : 8 bits Scan type                                : Progressive Bits/(Pixel*Frame)                       : 0.108 Stream size                              : 3.73 GiB (76%) Writing library                          : x264 core 115 r1995 c1e60b9 Encoding settings                        : cabac=1 / ref=4 / deblock=1:0:0 / analyse=0x3:0x133 / me=umh / subme=7 / psy=1 / psy_rd=1.00:0.00 / mixed_ref=1 / me_range=16 / chroma_me=1 / trellis=1 / 8x8dct=1 / cqm=0 / deadzone=21,11 / fast_pskip=0 / chroma_qp_offset=-2 / threads=9 / sliced_threads=0 / nr=0 / decimate=1 / interlaced=0 / bluray_compat=0 / constrained_intra=0 / bframes=3 / b_pyramid=2 / b_adapt=1 / b_bias=0 / direct=1 / weightb=1 / open_gop=0 / weightp=2 / keyint=250 / keyint_min=23 / scenecut=40 / intra_refresh=0 / rc_lookahead=40 / rc=crf / mbtree=1 / crf=20.0 / qcomp=0.60 / qpmin=0 / qpmax=69 / qpstep=4 / ip_ratio=1.40 / aq=1:1.00 Language                                 : Dutch Default                                  : Yes Forced                                   : No Audio ID                                       : 2 Format                                   : DTS Format/Info                              : Digital Theater Systems Mode                                     : 16 Format settings, Endianness              : Big Codec ID                                 : A_DTS Duration                                 : 1h 39mn Bit rate mode                            : Constant Bit rate                                 : 1 509 Kbps Channel(s)                               : 6 channels Channel positions                        : Front: L C R, Side: L R, LFE Sampling rate                            : 48.0 KHz Frame rate                               : 93.750 fps (512 spf) Bit depth                                : 16 bits Compression mode                         : Lossy Stream size                              : 1.05 GiB (22%) Language                                 : English Default                                  : No Forced                                   : No

本站不提供任何下载。仅提供介绍,请支持正版。