[BT下载]七个以下 7.Below.2012.1080p.BluRay.x264.DTS-FGT 4.86GB

本站不提供「[BT下载]七个以下 7.Below.2012.1080p.BluRay.x264.DTS-FGT 4.86GB」下载,仅介绍「[BT下载]七个以下 7.Below.2012.1080p.BluRay.x264.DTS-FGT 4.86GB」,一起来讨论吧,做个好影评。
[BT下载]七个以下 7.Below.2012.1080p.BluRay.x264.DTS-FGT 4.86GB

[2010] [欧美] [恐怖] [BD-720P] [BT下载]七个以下 7.Below.2012.1080p.BluRay.x264.DTS-FGT 4.86GB --> ◎译  名 七个以下 ◎片  名 Seven Below ◎年  代 2012 ◎国  家 美国 ◎类  别 惊悚/恐怖 ◎语  言 英语 ◎IMDb评分  3.2/10 from 3,432 users ◎IMDb链接  http://www.imdb.com/title/tt1988781/ ◎豆瓣评分 3.1/10 from 697 users ◎豆瓣链接 https://movie.douban.com/subject/6874155/ ◎BT之家整理 http://www.btbbt.cc ◎片  长 92分钟 ◎导  演 Kevin Carraway ◎主  演 方·基默 Val Kilmer 文·瑞姆斯 Ving Rhames 鲁克·高斯 Luke Goss ◎简  介 一辆巴士在穿过山脉时坠毁,兄弟俩连同四个陌生人发现自己被困在雷雨中,而且一个猝死的乘客正死死盯着他们的脸。不久,惊魂未定的他们就被一个神秘男子救了出来。  男子把大家带到了坐落在荒芜的树林里的房子暂时休息,大家无处可去,只好在这里带到暴风雨退去。但是这个房子并不是想象的那么简单,这个老屋似乎有着不为人知的可怕过去. Video ID                                       : 1 Format                                   : AVC Format/Info                              : Advanced Video Codec Format profile                           : [email protected] Format settings, CABAC                   : Yes Format settings, ReFrames                : 4 frames Codec ID                                 : V_MPEG4/ISO/AVC Duration                                 : 1h 32mn Bit rate                                 : 5 877 Kbps Width                                    : 1 920 pixels Height                                   : 1 080 pixels Display aspect ratio                     : 16:9 Frame rate mode                          : Constant Frame rate                               : 23.976 (24000/1001) fps Color space                              : YUV Chroma subsampling                       : 4:2:0 Bit depth                                : 8 bits Scan type                                : Progressive Bits/(Pixel*Frame)                       : 0.118 Stream size                              : 3.79 GiB (78%) Writing library                          : x264 core 122 r2184 5c85e0a Encoding settings                        : cabac=1 / ref=4 / deblock=1:0:0 / analyse=0x3:0x113 / me=umh / subme=7 / psy=1 / psy_rd=1.00:0.00 / mixed_ref=1 / me_range=16 / chroma_me=1 / trellis=1 / 8x8dct=1 / cqm=0 / deadzone=21,11 / fast_pskip=0 / chroma_qp_offset=-2 / threads=12 / sliced_threads=0 / nr=0 / decimate=1 / interlaced=0 / bluray_compat=0 / constrained_intra=0 / bframes=3 / b_pyramid=2 / b_adapt=1 / b_bias=0 / direct=1 / weightb=1 / open_gop=0 / weightp=2 / keyint=250 / keyint_min=23 / scenecut=40 / intra_refresh=0 / rc_lookahead=40 / rc=crf / mbtree=1 / crf=20.0 / qcomp=0.60 / qpmin=0 / qpmax=69 / qpstep=4 / ip_ratio=1.40 / aq=1:1.00 Language                                 : English Default                                  : Yes Forced                                   : Yes Audio ID                                       : 2 Format                                   : DTS Format/Info                              : Digital Theater Systems Mode                                     : 16 Format settings, Endianness              : Big Codec ID                                 : A_DTS Duration                                 : 1h 32mn Bit rate mode                            : Constant Bit rate                                 : 1 509 Kbps Channel(s)                               : 6 channels Channel positions                        : Front: L C R, Side: L R, LFE Sampling rate                            : 48.0 KHz Frame rate                               : 93.750 fps (512 spf) Bit depth                                : 24 bits Compression mode                         : Lossy Stream size                              : 997 MiB (20%) Language                                 : English Default                                  : No Forced                                   : No

本站不提供任何下载。仅提供介绍,请支持正版。