[BT下载]美国式的玩笑/笑弹两人行 The.Private.Eyes.1980.720p.BluRay.x264-aAF 4.37GB

本站不提供「[BT下载]美国式的玩笑/笑弹两人行 The.Private.Eyes.1980.720p.BluRay.x264-aAF 4.37GB」下载,仅介绍「[BT下载]美国式的玩笑/笑弹两人行 The.Private.Eyes.1980.720p.BluRay.x264-aAF 4.37GB」,一起来讨论吧,做个好影评。
[BT下载]美国式的玩笑/笑弹两人行 The.Private.Eyes.1980.720p.BluRay.x264-aAF 4.37GB

[更 早] [欧美] [喜剧] [BD-720P] [BT下载]美国式的玩笑/笑弹两人行 The.Private.Eyes.1980.720p.BluRay.x264-aAF 4.37GB --> ◎译  名 美国式的玩笑/笑弹两人行/上帝的玩笑/活宝出差/乌龙神探/诅咒警魂 ◎片  名 The Private Eyes ◎年  代 1980 ◎国  家 美国 ◎类  别 喜剧/悬疑 ◎语  言 英语 ◎IMDb评分  6.8/10 from 1,982 users ◎IMDb链接  http://www.imdb.com/title/tt0081376/ ◎BT之家整理 http://www.btbbt.cc ◎片  长 91 分钟 ◎导  演 Lang Elliott ◎简  介 This spoof of the Sherlock Holmes stories finds Inspector Winship and Dr. Tart investigating a strange death in a possibly haunted mansion| while dealing with the beautiful heiress and the crazed staff which live therein. Video ID                                       : 1 Format                                   : AVC Format/Info                              : Advanced Video Codec Format profile                           : [email protected] Format settings, CABAC                   : Yes Format settings, ReFrames                : 5 frames Codec ID                                 : V_MPEG4/ISO/AVC Duration                                 : 1h 30mn Bit rate                                 : 6 628 Kbps Width                                    : 1 280 pixels Height                                   : 720 pixels Display aspect ratio                     : 16:9 Frame rate mode                          : Constant Frame rate                               : 23.976 fps Color space                              : YUV Chroma subsampling                       : 4:2:0 Bit depth                                : 8 bits Scan type                                : Progressive Bits/(Pixel*Frame)                       : 0.300 Stream size                              : 4.12 GiB (94%) Writing library                          : x264 core 107 r1745 4785e8e Encoding settings                        : cabac=1 / ref=5 / deblock=1:0:0 / analyse=0x3:0x133 / me=umh / subme=8 / psy=1 / psy_rd=1.00:0.00 / mixed_ref=1 / me_range=16 / chroma_me=1 / trellis=1 / 8x8dct=1 / cqm=0 / deadzone=21,11 / fast_pskip=0 / chroma_qp_offset=-2 / threads=6 / sliced_threads=0 / nr=0 / decimate=1 / interlaced=0 / constrained_intra=0 / bframes=3 / b_pyramid=2 / b_adapt=1 / b_bias=0 / direct=1 / weightb=1 / open_gop=0 / weightp=2 / keyint=240 / keyint_min=24 / scenecut=40 / intra_refresh=0 / rc_lookahead=40 / rc=2pass / mbtree=1 / bitrate=6628 / ratetol=1.0 / qcomp=0.60 / qpmin=10 / qpmax=51 / qpstep=4 / cplxblur=20.0 / qblur=0.5 / ip_ratio=1.40 / aq=1:1.00 Language                                 : English Default                                  : Yes Forced                                   : No Audio ID                                       : 2 Format                                   : AC-3 Format/Info                              : Audio Coding 3 Mode extension                           : CM (complete main) Format settings, Endianness              : Big Codec ID                                 : A_AC3 Duration                                 : 1h 30mn Bit rate mode                            : Constant Bit rate                                 : 256 Kbps Channel(s)                               : 2 channels Channel positions                        : Front: L R Sampling rate                            : 48.0 KHz Frame rate                               : 31.250 fps (1536 spf) Compression mode                         : Lossy Stream size                              : 167 MiB (4%) Language                                 : English Default                                  : Yes Forced                                   : No Menu 00:00:00.000                             : en:00:00:00.000 00:07:37.957                             : en:00:07:37.957 00:17:01.312                             : en:00:17:01.312 00:22:32.851                             : en:00:22:32.851 00:32:34.953                             : en:00:32:34.953 00:37:20.321                             : en:00:37:20.321 00:44:22.159                             : en:00:44:22.159 00:54:38.233                             : en:00:54:38.233 01:04:19.814                             : en:01:04:19.814 01:13:02.169                             : en:01:13:02.169 01:24:30.232                             : en:01:24:30.232 01:28:13.455                             : en:01:28:13.455

本站不提供任何下载。仅提供介绍,请支持正版。