[BT下载]老爸上战场 Dads.Army.2016.1080p.WEB-DL.DD5.1.H264-FGT 3.4GB

本站不提供「[BT下载]老爸上战场 Dads.Army.2016.1080p.WEB-DL.DD5.1.H264-FGT 3.4GB」下载,仅介绍「[BT下载]老爸上战场 Dads.Army.2016.1080p.WEB-DL.DD5.1.H264-FGT 3.4GB」,一起来讨论吧,做个好影评。
[BT下载]老爸上战场 Dads.Army.2016.1080p.WEB-DL.DD5.1.H264-FGT 3.4GB

[2016] [欧美] [喜剧] [BD-720P] [BT下载]老爸上战场 Dads.Army.2016.1080p.WEB-DL.DD5.1.H264-FGT 3.4GB --> ◎译  名 老爸上战场 ◎片  名 Dad's Army ◎年  代 2016 ◎国  家 英国 ◎类  别 喜剧 ◎语  言 英语 ◎上映日期 2016-02-05(英国) ◎IMDb评分  5.5/10 from 1,296 users ◎IMDb链接  http://www.imdb.com/title/tt4104054/ ◎豆瓣评分 6.7/10 from 11 users ◎豆瓣链接 https://movie.douban.com/subject/26178738/ ◎BT之家整理 http://www.btbbt.cc ◎导  演 奥利弗·帕克 Oliver Parker ◎主  演 凯瑟琳·泽塔-琼斯 Catherine Zeta-Jones 比尔·奈伊 Bill Nighy 迈克尔·刚本 Michael Gambon 托比·琼斯 Toby Jones 丹尼尔·梅斯 Daniel Mays 莎拉·兰开夏 Sarah Lancashire 马克·加蒂斯 Mark Gatiss 汤姆·康特奈 Tom Courtenay 艾莉森·斯戴曼 Alison Steadman 比尔·帕特森 Bill Paterson 安妮特·克罗斯比 Annette Crosbie 布莱克·哈里森 Blake Harrison Emily Atack Holli Dempsey Felicity Montagu ◎简  介 《老爸上战场》的主角是一群居住在英国小镇上的老爷子,他们的身份本是银行职员、小店老板。随着二战愈演愈烈,满怀报国热情的爷爷们没资格参加正规军,却自发组成志愿军团保家卫国,与德国间谍斗智斗勇。这支非正规军引起了媒体的主意,泽塔·琼斯饰演的女记者也来到小镇报道他们的故事。 Video ID                                       : 1 Format                                   : AVC Format/Info                              : Advanced Video Codec Format profile                           : [email protected] Format settings, CABAC                   : Yes Format settings, ReFrames                : 5 frames Codec ID                                 : V_MPEG4/ISO/AVC Duration                                 : 1h 39mn Bit rate                                 : 4 387 Kbps Width                                    : 1 916 pixels Height                                   : 800 pixels Display aspect ratio                     : 2.40:1 Frame rate mode                          : Constant Frame rate                               : 23.976 fps Color space                              : YUV Chroma subsampling                       : 4:2:0 Bit depth                                : 8 bits Scan type                                : Progressive Bits/(Pixel*Frame)                       : 0.119 Stream size                              : 3.06 GiB (90%) Title                                    : Dads.Army.2016.1080p.WEB-DL.DD5.1.H264-FGT Language                                 : English Default                                  : Yes Forced                                   : No Color range                              : Limited Color primaries                          : BT.709 Transfer characteristics                 : BT.709 Matrix coefficients                      : BT.709 Audio ID                                       : 2 Format                                   : AC-3 Format/Info                              : Audio Coding 3 Mode extension                           : CM (complete main) Format settings, Endianness              : Big Codec ID                                 : A_AC3 Duration                                 : 1h 39mn Bit rate mode                            : Constant Bit rate                                 : 384 Kbps Channel(s)                               : 6 channels Channel positions                        : Front: L C R, Side: L R, LFE Sampling rate                            : 48.0 KHz Frame rate                               : 31.250 fps (1536 spf) Compression mode                         : Lossy Stream size                              : 274 MiB (8%) Title                                    : Dads.Army.2016.1080p.WEB-DL.DD5.1.H264-FGT Language                                 : English Default                                  : Yes Forced                                   : No Text ID                                       : 3 Format                                   : UTF-8 Codec ID                                 : S_TEXT/UTF8 Codec ID/Info                            : UTF-8 Plain Text Language                                 : English Default                                  : Yes Forced                                   : No Menu 00:00:00.000                             : en:1 00:04:00.000                             : en:2 00:07:51.000                             : en:3 00:14:24.000                             : en:4 00:18:37.000                             : en:5 00:23:30.000                             : en:6 00:27:40.000                             : en:7 00:32:52.000                             : en:8 00:38:17.000                             : en:9 00:43:59.000                             : en:10 00:47:33.000                             : en:11 00:54:26.000                             : en:12 00:57:56.000                             : en:13 01:02:07.000                             : en:14 01:06:11.000                             : en:15 01:11:02.000                             : en:16 01:17:49.000                             : en:17 01:23:17.000                             : en:18 01:31:49.000                             : en:19 01:35:52.000                             : en:20

本站不提供任何下载。仅提供介绍,请支持正版。