[BT下载]皮威的长假 Pee-wees.Big.Holiday.2016.2160p.NF.WEBRip.DD5.1.x264-TUHD 24GB

本站不提供「[BT下载]皮威的长假 Pee-wees.Big.Holiday.2016.2160p.NF.WEBRip.DD5.1.x264-TUHD 24GB」下载,仅介绍「[BT下载]皮威的长假 Pee-wees.Big.Holiday.2016.2160p.NF.WEBRip.DD5.1.x264-TUHD 24GB」,一起来讨论吧,做个好影评。
[BT下载]皮威的长假 Pee-wees.Big.Holiday.2016.2160p.NF.WEBRip.DD5.1.x264-TUHD 24GB

[2016] [欧美] [喜剧] [WEB-2016P] [BT下载]皮威的长假 Pee-wees.Big.Holiday.2016.2160p.NF.WEBRip.DD5.1.x264-TUHD 24GB --> ◎译  名 皮威的长假 ◎片  名 Pee-wee's Big Holiday ◎年  代 2016 ◎国  家 美国 ◎类  别 喜剧/冒险 ◎语  言 英语 ◎上映日期 2016-03(美国) ◎IMDb评分  6.5/10 from 3,296 users ◎IMDb链接  http://www.imdb.com/title/tt0837156/ ◎豆瓣评分 7.0/10 from 26 users ◎豆瓣链接 https://movie.douban.com/subject/1951170/ ◎导  演 John Lee ◎主  演 乔·曼根尼罗 Joe Manganiello 阿莉雅·肖卡特 Alia Shawkat 詹妮娜·加万卡 Janina Gavankar 保罗·雷宾斯 Paul Reubens 大卫·阿奎特 David Arquette 林赛·霍利斯特 Lindsay Hollister 里奥·菲茨帕特里克 Leo Fitzpatrick 布拉德·威廉姆·亨克 Brad William Henke Tara Buck 莫尼卡·霍兰 Monica Horan 黛安·萨林格 Diane Salinger ◎简  介 美国经典老电影和电视剧改编,传说 Mr. Bean 的动作是向Paul "Pee Wee" Reubens 学习的。 Video ID                                       : 1 Format                                   : AVC Format/Info                              : Advanced Video Codec Format profile                           : [email protected] Format settings, CABAC                   : Yes Format settings, ReFrames                : 5 frames Codec ID                                 : V_MPEG4/ISO/AVC Duration                                 : 1h 29mn Bit rate                                 : 37.9 Mbps Width                                    : 3 840 pixels Height                                   : 2 076 pixels Display aspect ratio                     : 1.85:1 Frame rate mode                          : Constant Frame rate                               : 23.976 (24000/1001) fps Color space                              : YUV Chroma subsampling                       : 4:2:0 Bit depth                                : 8 bits Scan type                                : Progressive Bits/(Pixel*Frame)                       : 0.198 Stream size                              : 23.6 GiB (98%) Writing library                          : x264 core 148 r2638 7599210 Encoding settings                        : cabac=1 / ref=5 / deblock=1:-1:-1 / analyse=0x3:0x133 / me=umh / subme=10 / psy=1 / psy_rd=1.00:0.15 / mixed_ref=1 / me_range=48 / chroma_me=1 / trellis=2 / 8x8dct=1 / cqm=0 / deadzone=21,11 / fast_pskip=1 / chroma_qp_offset=-3 / threads=12 / lookahead_threads=2 / sliced_threads=0 / nr=0 / decimate=0 / interlaced=0 / bluray_compat=0 / constrained_intra=0 / bframes=8 / b_pyramid=2 / b_adapt=2 / b_bias=0 / direct=3 / weightb=1 / open_gop=0 / weightp=2 / keyint=240 / keyint_min=23 / scenecut=40 / intra_refresh=0 / rc_lookahead=60 / rc=crf / mbtree=1 / crf=17.0 / qcomp=0.70 / qpmin=0 / qpmax=69 / qpstep=4 / vbv_maxrate=300000 / vbv_bufsize=300000 / crf_max=0.0 / nal_hrd=none / filler=0 / ip_ratio=1.40 / aq=1:0.90 Default                                  : Yes Forced                                   : No Audio ID                                       : 2 Format                                   : AC-3 Format/Info                              : Audio Coding 3 Mode extension                           : CM (complete main) Format settings, Endianness              : Big Codec ID                                 : A_AC3 Duration                                 : 1h 29mn Bit rate mode                            : Constant Bit rate                                 : 640 Kbps Channel(s)                               : 6 channels Channel positions                        : Front: L C R, Side: L R, LFE Sampling rate                            : 48.0 KHz Frame rate                               : 31.250 fps (1536 spf) Compression mode                         : Lossy Delay relative to video                  : 2s 153ms Stream size                              : 408 MiB (2%) Language                                 : English Default                                  : Yes Forced                                   : No

本站不提供任何下载。仅提供介绍,请支持正版。