[BT下载]假死新人生 The.Do.Over.2016.NF.WEBRip.DD5.1.x264-FGT 1.88GB

本站不提供「[BT下载]假死新人生 The.Do.Over.2016.NF.WEBRip.DD5.1.x264-FGT 1.88GB」下载,仅介绍「[BT下载]假死新人生 The.Do.Over.2016.NF.WEBRip.DD5.1.x264-FGT 1.88GB」,一起来讨论吧,做个好影评。
[BT下载]假死新人生 The.Do.Over.2016.NF.WEBRip.DD5.1.x264-FGT 1.88GB

[2016] [欧美] [喜剧] [WEB-2016P] [BT下载]假死新人生 The.Do.Over.2016.NF.WEBRip.DD5.1.x264-FGT 1.88GB --> ◎译  名 假死新人生 ◎片  名 The Do Over ◎年  代 2016 ◎国  家 美国 ◎类  别 喜剧 ◎语  言 英语 ◎上映日期 2016-05-27(美国) ◎IMDb评分  6.3/10 from 594 users ◎IMDb链接  http://www.imdb.com/title/tt4769836/ ◎BT之家整理 http://www.btbbt.cc ◎导  演 史蒂文·布里尔 Steven Brill ◎主  演 亚当·桑德勒 Adam Sandler 宝拉·巴顿 Paula Patton 路易斯·古兹曼 Luis Guzmán 大卫·斯佩德 David Spade 尼克·斯旺森 Nick Swardson 杰瑞德·桑德勒 Jared Sandler Renée Taylor ◎简  介 《假死新人生》主基调依旧是桑德勒一贯的喜剧风格。大卫·斯佩德扮演一位生活中并不很得意的银行职员,一次聚会中他偶遇高中时期好友Max(亚当·桑德勒 饰),Max自称目前任职于美国联邦调查局(FBI),二人经过一系列疯狂派对后,又伪造了假死亡,踏上了全新的冒险之旅。 影片由史蒂文·布里尔执导,其他的卡司还包括宝拉·巴顿、凯瑟琳·哈恩、迈克尔·切克利斯、西恩·奥斯汀、凯瑟琳·贝尔、马特·沃尔什等 Video ID                                       : 1 Format                                   : AVC Format/Info                              : Advanced Video Codec Format profile                           : [email protected] Format settings, CABAC                   : Yes Format settings, ReFrames                : 5 frames Codec ID                                 : V_MPEG4/ISO/AVC Duration                                 : 1h 48mn Bit rate                                 : 2 038 Kbps Nominal bit rate                         : 2 150 Kbps Width                                    : 720 pixels Height                                   : 384 pixels Display aspect ratio                     : 1.85:1 Frame rate mode                          : Constant Frame rate                               : 23.976 (23976/1000) fps Color space                              : YUV Chroma subsampling                       : 4:2:0 Bit depth                                : 8 bits Scan type                                : Progressive Bits/(Pixel*Frame)                       : 0.307 Stream size                              : 1.55 GiB (82%) Title                                    : The.Do.Over.2016.NF.WEBRip.DD5.1.x264-FGT Writing library                          : x264 core 148 r2694 3b70645 Encoding settings                        : cabac=1 / ref=5 / deblock=1:-2:-2 / analyse=0x3:0x113 / me=umh / subme=8 / psy=1 / psy_rd=0.90:0.00 / mixed_ref=1 / me_range=16 / chroma_me=1 / trellis=1 / 8x8dct=1 / cqm=0 / deadzone=21,11 / fast_pskip=1 / chroma_qp_offset=-2 / threads=12 / lookahead_threads=2 / sliced_threads=0 / nr=0 / decimate=1 / interlaced=0 / bluray_compat=0 / constrained_intra=0 / bframes=3 / b_pyramid=2 / b_adapt=2 / b_bias=0 / direct=3 / weightb=1 / open_gop=0 / weightp=2 / keyint=250 / keyint_min=25 / scenecut=40 / intra_refresh=0 / rc_lookahead=50 / rc=abr / mbtree=1 / bitrate=2150 / ratetol=1.0 / qcomp=0.60 / qpmin=0 / qpmax=69 / qpstep=4 / vbv_maxrate=31250 / vbv_bufsize=31250 / nal_hrd=none / filler=0 / ip_ratio=1.40 / aq=1:1.00 Language                                 : English Default                                  : Yes Forced                                   : No Audio ID                                       : 2 Format                                   : AC-3 Format/Info                              : Audio Coding 3 Mode extension                           : CM (complete main) Format settings, Endianness              : Big Codec ID                                 : A_AC3 Duration                                 : 1h 48mn Bit rate mode                            : Constant Bit rate                                 : 384 Kbps Channel(s)                               : 6 channels Channel positions                        : Front: L C R, Side: L R, LFE Sampling rate                            : 48.0 KHz Frame rate                               : 31.250 fps (1536 spf) Compression mode                         : Lossy Stream size                              : 299 MiB (16%) Title                                    : The.Do.Over.2016.NF.WEBRip.DD5.1.x264-FGT Language                                 : English Default                                  : Yes Forced                                   : No Text #1 ID                                       : 3 Format                                   : UTF-8 Codec ID                                 : S_TEXT/UTF8 Codec ID/Info                            : UTF-8 Plain Text Language                                 : English Default                                  : Yes Forced                                   : No Text #2 ID                                       : 4 Format                                   : UTF-8 Codec ID                                 : S_TEXT/UTF8 Codec ID/Info                            : UTF-8 Plain Text Language                                 : French Default                                  : No Forced                                   : No Text #3 ID                                       : 5 Format                                   : UTF-8 Codec ID                                 : S_TEXT/UTF8 Codec ID/Info                            : UTF-8 Plain Text Language                                 : German Default                                  : No Forced                                   : No Text #4 ID                                       : 6 Format                                   : UTF-8 Codec ID                                 : S_TEXT/UTF8 Codec ID/Info                            : UTF-8 Plain Text Language                                 : Italian Default                                  : No Forced                                   : No

本站不提供任何下载。仅提供介绍,请支持正版。