[BT下载]特使 Special.Correspondents.2016.2160p.NF.WEBRip.DD5.1.x264-NTb 29.85GB

本站不提供「[BT下载]特使 Special.Correspondents.2016.2160p.NF.WEBRip.DD5.1.x264-NTb 29.85GB」下载,仅介绍「[BT下载]特使 Special.Correspondents.2016.2160p.NF.WEBRip.DD5.1.x264-NTb 29.85GB」,一起来讨论吧,做个好影评。
[BT下载]特使 Special.Correspondents.2016.2160p.NF.WEBRip.DD5.1.x264-NTb 29.85GB

[2016] [欧美] [喜剧] [WEB-2016P] [BT下载]特使 Special.Correspondents.2016.2160p.NF.WEBRip.DD5.1.x264-NTb 29.85GB --> ◎译  名 特使 ◎片  名 Special Correspondents ◎年  代 2016 ◎国  家 英国/加拿大 ◎类  别 喜剧 ◎上映日期 2016-04-29(美国) ◎IMDb评分  5.8/10 from 5,617 users ◎IMDb链接  http://www.imdb.com/title/tt4181052/ ◎豆瓣评分 6.2/10 from 103 users ◎豆瓣链接 https://movie.douban.com/subject/26305425/ ◎BT之家整理 http://www.btbbt.cc ◎片  长 100分钟 ◎导  演 瑞奇·热维斯 Ricky Gervais ◎主  演 瑞奇·热维斯 Ricky Gervais 艾瑞克·巴纳 Eric Bana 维拉·法米加 Vera Farmiga 凯莉·麦克唐纳 Kelly Macdonald 梅根·赫弗恩 Meghan Heffern 亚美莉卡·费雷拉 America Ferrera 本杰明·布拉特 Benjamin Bratt 凯文·波拉克 Kevin Pollak 劳尔·卡斯提洛 Raúl Castillo Jim Norton ◎简  介 影片翻拍自2009年法国同名喜剧片,讲述两个战地记者躲在家里炮制假新闻,结果引火上身引发一系列闹剧。 Video ID                                       : 1 Format                                   : AVC Format/Info                              : Advanced Video Codec Format profile                           : [email protected] Format settings, CABAC                   : Yes Format settings, ReFrames                : 5 frames Codec ID                                 : V_MPEG4/ISO/AVC Duration                                 : 1h 41mn Bit rate                                 : 41.1 Mbps Width                                    : 3 840 pixels Height                                   : 2 076 pixels Display aspect ratio                     : 1.85:1 Frame rate mode                          : Constant Frame rate                               : 24.000 fps Color space                              : YUV Chroma subsampling                       : 4:2:0 Bit depth                                : 8 bits Scan type                                : Progressive Bits/(Pixel*Frame)                       : 0.215 Stream size                              : 29.0 GiB (97%) Writing library                          : x264 core 144 r2525 40bb568 Encoding settings                        : cabac=1 / ref=5 / deblock=1:-3:-3 / analyse=0x3:0x133 / me=umh / subme=10 / psy=1 / psy_rd=1.00:0.00 / mixed_ref=1 / me_range=48 / chroma_me=1 / trellis=2 / 8x8dct=1 / cqm=0 / deadzone=21,11 / fast_pskip=1 / chroma_qp_offset=-2 / threads=12 / lookahead_threads=2 / sliced_threads=0 / nr=0 / decimate=1 / interlaced=0 / bluray_compat=0 / constrained_intra=0 / bframes=8 / b_pyramid=2 / b_adapt=2 / b_bias=0 / direct=3 / weightb=1 / open_gop=0 / weightp=2 / keyint=250 / keyint_min=24 / scenecut=40 / intra_refresh=0 / rc=crf / mbtree=0 / crf=19.0 / qcomp=0.60 / qpmin=0 / qpmax=69 / qpstep=4 / ip_ratio=1.30 / pb_ratio=1.20 / aq=3:0.80 Language                                 : English Default                                  : Yes Forced                                   : No Audio ID                                       : 2 Format                                   : AC-3 Format/Info                              : Audio Coding 3 Mode extension                           : CM (complete main) Format settings, Endianness              : Big Codec ID                                 : A_AC3 Duration                                 : 1h 41mn Bit rate mode                            : Constant Bit rate                                 : 384 Kbps Channel(s)                               : 6 channels Channel positions                        : Front: L C R, Side: L R, LFE Sampling rate                            : 48.0 KHz Frame rate                               : 31.250 fps (1536 spf) Compression mode                         : Lossy Stream size                              : 277 MiB (1%) Language                                 : English Default                                  : Yes Forced                                   : No Text #1 ID                                       : 3 Format                                   : UTF-8 Codec ID                                 : S_TEXT/UTF8 Codec ID/Info                            : UTF-8 Plain Text Language                                 : English Default                                  : No Forced                                   : No Text #2 ID                                       : 4 Format                                   : UTF-8 Codec ID                                 : S_TEXT/UTF8 Codec ID/Info                            : UTF-8 Plain Text Language                                 : French Default                                  : No Forced                                   : No Text #3 ID                                       : 5 Format                                   : UTF-8 Codec ID                                 : S_TEXT/UTF8 Codec ID/Info                            : UTF-8 Plain Text Language                                 : Italian Default                                  : No Forced                                   : No

本站不提供任何下载。仅提供介绍,请支持正版。