六逗逼/滑稽六人组 The.Ridiculous.6.2015.2160p.NF.WEBRip.x264.DD5.1-DOUCHEBAGS 18GB

本站不提供「六逗逼/滑稽六人组 The.Ridiculous.6.2015.2160p.NF.WEBRip.x264.DD5.1-DOUCHEBAGS 18GB」下载,仅介绍「六逗逼/滑稽六人组 The.Ridiculous.6.2015.2160p.NF.WEBRip.x264.DD5.1-DOUCHEBAGS 18GB」,一起来讨论吧,做个好影评。
六逗逼/滑稽六人组 The.Ridiculous.6.2015.2160p.NF.WEBRip.x264.DD5.1-DOUCHEBAGS 18GB

[WEB-2016P] [2015] [欧美] [喜剧] 六逗逼/滑稽六人组 The.Ridiculous.6.2015.2160p.NF.WEBRip.x264.DD5.1-DOUCHEBAGS 18GB --> ◎译  名 六逗逼/滑稽六人组 ◎片  名 The Ridiculous 6 ◎年  代 2015 ◎国  家 美国 ◎类  别 喜剧/西部 ◎语  言 英语 ◎上映日期 2015-12-11(美国) ◎IMDb评分  5.1/10 from 6,284 users ◎IMDb链接  http://www.imdb.com/title/tt2479478/ ◎豆瓣评分 6.1/10 from 40 users ◎豆瓣链接 http://movie.douban.com/subject/26312844/ ◎导  演 弗兰克·克拉斯 Frank Coraci ◎主  演 泰勒·洛特纳 Taylor Lautner 亚当·桑德勒 Adam Sandler 泰瑞·克鲁斯 Terry Crews 威尔·福特 Will Forte 史蒂夫·布西密 Steve Buscemi 卢克·威尔逊 Luke Wilson 丹尼·特雷霍 Danny Trejo 尼克·诺特 Nick Nolte 大卫·斯佩德 David Spade 乔治·加西亚 Jorge Garcia 史蒂夫·茨恩 Steve Zahn 惠特妮·卡明 Whitney Cummings 约翰·特托罗 John Turturro 罗伯·施奈德 Rob Schneider 尼克·斯旺森 Nick Swardson ◎简  介 影片灵感来源于约翰·斯特奇斯指导的著名西部片《豪勇七蛟龙》,但也有人指出该片的预告片皆模仿知名导演昆丁的第八部长片《八恶人》。由Netflix原创出品的电影,将于今年12月11日在Netflix上全面放出。影片讲述素不相识的六位陌生人,只因有着共同父亲而聚集到一起的故事,成为整个西部最为“臭名远扬”的黑帮小队。影片投资高达6600万美金,同时强大的阵容也受到很多关注。影片最早是派拉蒙在2012年的项目,但后改为由华纳兄弟,Netflix和亚当·桑德勒的公司出品,但因华纳兄弟中途退出,在2014年由Netflix全盘接手。Netflix接手后,除去亚当·桑德勒以外加入了其他数位明星,打造了本片全明星的阵容。本片试用极多的美国印第安原住民,从而更为深刻打造出西部片和印第安风的画面感。 Video ID                                       : 1 Format                                   : AVC Format/Info                              : Advanced Video Codec Format profile                           : [email protected] Format settings, CABAC                   : Yes Format settings, ReFrames                : 7 frames Codec ID                                 : V_MPEG4/ISO/AVC Duration                                 : 1h 59mn Bit rate                                 : 20.9 Mbps Width                                    : 3 840 pixels Height                                   : 1 600 pixels Display aspect ratio                     : 2.40:1 Frame rate mode                          : Constant Frame rate                               : 23.976 (24000/1001) fps Color space                              : YUV Chroma subsampling                       : 4:2:0 Bit depth                                : 8 bits Scan type                                : Progressive Bits/(Pixel*Frame)                       : 0.142 Stream size                              : 17.4 GiB (95%) Writing library                          : x264 core 148 r2638 7599210 Encoding settings                        : cabac=1 / ref=7 / deblock=1:-1:-1 / analyse=0x3:0x133 / me=umh / subme=10 / psy=1 / psy_rd=1.05:0.00 / mixed_ref=1 / me_range=24 / chroma_me=1 / trellis=2 / 8x8dct=1 / cqm=0 / deadzone=21,11 / fast_pskip=1 / chroma_qp_offset=-2 / threads=24 / lookahead_threads=4 / sliced_threads=0 / nr=0 / decimate=1 / interlaced=0 / bluray_compat=0 / constrained_intra=0 / bframes=8 / b_pyramid=2 / b_adapt=2 / b_bias=0 / direct=3 / weightb=1 / open_gop=0 / weightp=2 / keyint=250 / keyint_min=23 / scenecut=40 / intra_refresh=0 / rc_lookahead=60 / rc=crf / mbtree=1 / crf=16.5 / qcomp=0.60 / qpmin=0 / qpmax=69 / qpstep=4 / ip_ratio=1.40 / aq=2:0.90 Language                                 : English Default                                  : Yes Forced                                   : No Color range                              : Limited Color primaries                          : BT.709 Transfer characteristics                 : BT.709 Matrix coefficients                      : BT.709 Audio ID                                       : 2 Format                                   : AC-3 Format/Info                              : Audio Coding 3 Mode extension                           : CM (complete main) Format settings, Endianness              : Big Codec ID                                 : A_AC3 Duration                                 : 1h 59mn Bit rate mode                            : Constant Bit rate                                 : 640 Kbps Channel(s)                               : 6 channels Channel positions                        : Front: L C R, Side: L R, LFE Sampling rate                            : 48.0 KHz Frame rate                               : 31.250 fps (1536 spf) Compression mode                         : Lossy Stream size                              : 545 MiB (3%) Language                                 : English Default                                  : Yes Forced                                   : No Text #1 ID                                       : 3 Format                                   : UTF-8 Codec ID                                 : S_TEXT/UTF8 Codec ID/Info                            : UTF-8 Plain Text Language                                 : English Default                                  : Yes Forced                                   : No Text #2 ID                                       : 4 Format                                   : UTF-8 Codec ID                                 : S_TEXT/UTF8 Codec ID/Info                            : UTF-8 Plain Text Language                                 : French Default                                  : No Forced                                   : No Text #3 ID                                       : 5 Format                                   : UTF-8 Codec ID                                 : S_TEXT/UTF8 Codec ID/Info                            : UTF-8 Plain Text Language                                 : German Default                                  : No Forced                                   : No Text #4 ID                                       : 6 Format                                   : UTF-8 Codec ID                                 : S_TEXT/UTF8 Codec ID/Info                            : UTF-8 Plain Text Language                                 : Italian Default                                  : No Forced                                   : No Text #5 ID                                       : 7 Format                                   : UTF-8 Codec ID                                 : S_TEXT/UTF8 Codec ID/Info                            : UTF-8 Plain Text Language                                 : Spanish Default                                  : No Forced                                   : No

本站不提供任何下载。仅提供介绍,请支持正版。