[BT下载]科洛弗道10号 10.Cloverfield.Lane.2016.1080p.WEB-DL.DD5.1.H264-RARBG 3.53GB

本站不提供「[BT下载]科洛弗道10号 10.Cloverfield.Lane.2016.1080p.WEB-DL.DD5.1.H264-RARBG 3.53GB」下载,仅介绍「[BT下载]科洛弗道10号 10.Cloverfield.Lane.2016.1080p.WEB-DL.DD5.1.H264-RARBG 3.53GB」,一起来讨论吧,做个好影评。
[BT下载]科洛弗道10号 10.Cloverfield.Lane.2016.1080p.WEB-DL.DD5.1.H264-RARBG 3.53GB

[2016] [欧美] [科幻] [WEB-1080P] [BT下载]科洛弗道10号 10.Cloverfield.Lane.2016.1080p.WEB-DL.DD5.1.H264-RARBG 3.53GB --> ◎译  名 科洛弗道10号/末世街10号(港)/科洛弗10号地窖(台)/科洛弗档案2/苜蓿地2/地窖 ◎片  名 10 Cloverfield Lane ◎年  代 2016 ◎国  家 美国 ◎类  别 动作/悬疑/科幻/惊悚 ◎语  言 英语 ◎上映日期 2016-03-11(美国) ◎IMDb评分  7.4/10 from 78,290 users ◎IMDb链接  http://www.imdb.com/title/tt1179933/ ◎豆瓣评分 6.9/10 from 13,072 users ◎豆瓣链接 https://movie.douban.com/subject/2977957/ ◎BT之家整理 http://www.btbbt.cc ◎片  长 103分钟 ◎导  演 达恩·特拉亨伯格 Dan Trachtenberg ◎主  演 约翰·古德曼 John Goodman 玛丽·伊丽莎白·温斯特德 Mary Elizabeth Winstead 小约翰·加拉赫 John Gallagher Jr. 布莱德利·库珀 Bradley Cooper 道格拉斯·M.格里芬 Douglas M. Griffin 苏珊·克莱尔 Suzanne Cryer 素玛立·蒙塔诺 Sumalee Montano 弗兰克·莫特克 Frank Mottek ◎简  介 在一场车祸之后,米歇尔(玛丽·伊丽莎白·温斯特德 Mary Elizabeth Winstead 饰)从不知名的地窖中醒来。限制她行动的霍华德(约翰·古德曼 John Goodman 饰)告诉她,因为外面的世界已经遭受生化攻击,他们只能躲在地底。她不知如何是好,但随着两人关系不断恶化,她决定不顾危险,自制防护衣逃到外面…… Video ID                                       : 1 Format                                   : AVC Format/Info                              : Advanced Video Codec Format profile                           : [email protected] Format settings, CABAC                   : Yes Format settings, ReFrames                : 5 frames Codec ID                                 : V_MPEG4/ISO/AVC Duration                                 : 1h 43mn Bit rate                                 : 4 384 Kbps Width                                    : 1 912 pixels Height                                   : 788 pixels Display aspect ratio                     : 2.40:1 Frame rate mode                          : Constant Frame rate                               : 23.976 fps Color space                              : YUV Chroma subsampling                       : 4:2:0 Bit depth                                : 8 bits Scan type                                : Progressive Bits/(Pixel*Frame)                       : 0.121 Stream size                              : 3.18 GiB (90%) Title                                    : 10.Cloverfield.Lane.2016.1080p.WEB-DL.DD5.1.H264-RARBG Language                                 : English Default                                  : Yes Forced                                   : No Color range                              : Limited Color primaries                          : BT.709 Transfer characteristics                 : BT.709 Matrix coefficients                      : BT.709 Audio ID                                       : 2 Format                                   : AC-3 Format/Info                              : Audio Coding 3 Mode extension                           : CM (complete main) Format settings, Endianness              : Big Codec ID                                 : A_AC3 Duration                                 : 1h 43mn Bit rate mode                            : Constant Bit rate                                 : 384 Kbps Channel(s)                               : 6 channels Channel positions                        : Front: L C R, Side: L R, LFE Sampling rate                            : 48.0 KHz Frame rate                               : 31.250 fps (1536 spf) Compression mode                         : Lossy Stream size                              : 286 MiB (8%) Title                                    : 10.Cloverfield.Lane.2016.1080p.WEB-DL.DD5.1.H264-RARBG Language                                 : English Default                                  : Yes Forced                                   : No Text ID                                       : 3 Format                                   : UTF-8 Codec ID                                 : S_TEXT/UTF8 Codec ID/Info                            : UTF-8 Plain Text Language                                 : English Default                                  : Yes Forced                                   : No Menu 00:00:00.000                             : en:Chapter 1 00:05:56.000                             : en:Chapter 2 00:14:46.000                             : en:Chapter 3 00:19:19.000                             : en:Chapter 4 00:24:12.000                             : en:Chapter 5 00:32:22.000                             : en:Chapter 6 00:43:00.000                             : en:Chapter 7 00:47:48.000                             : en:Chapter 8 00:53:38.000                             : en:Chapter 9 00:57:01.000                             : en:Chapter 10 01:03:11.000                             : en:Chapter 11 01:11:21.000                             : en:Chapter 12 01:15:50.000                             : en:Chapter 13 01:24:22.000                             : en:Chapter 14 01:28:20.000                             : en:Chapter 15 01:37:29.000                             : en:Chapter 16

本站不提供任何下载。仅提供介绍,请支持正版。