[BT下载]Battle.B.Boy.2014.1080p.BluRay.x264.DTS-FGT 5.12GB

本站不提供「[BT下载]Battle.B.Boy.2014.1080p.BluRay.x264.DTS-FGT 5.12GB」下载,仅介绍「[BT下载]Battle.B.Boy.2014.1080p.BluRay.x264.DTS-FGT 5.12GB」,一起来讨论吧,做个好影评。
[BT下载]Battle.B.Boy.2014.1080p.BluRay.x264.DTS-FGT 5.12GB

[2014] [欧美] [动作] [BD-1080P] [BT下载]Battle.B.Boy.2014.1080p.BluRay.x264.DTS-FGT 5.12GB --> ◎译  名 ◎片  名 Battle B-Boy ◎年  代 2012 ◎国  家 美国 ◎类  别 喜剧/动作/运动 ◎语  言 英语 ◎上映日期 2012-08-07 ◎IMDb评分  5.2/10 from 88 users ◎IMDb链接  http://www.imdb.com/title/tt1947969/ ◎BT之家整理 http://www.btbbt.cc ◎片  长 89分钟 ◎导  演 Frank Lin ◎主  演 Jae Phan Alison Dahlstrom Ricky Cole ◎简  介 A group of talented but financially struggling B-Boys join an underground fighting ring in Downtown Los Angeles that uses Hip-Hop music and Break dancing to battle for money. To save the life of one of their friend's father, the B-Boys form a strong bond. They fight for each other, for their families and for a better future. Video ID                                       : 1 Format                                   : AVC Format/Info                              : Advanced Video Codec Format profile                           : [email protected] Format settings, CABAC                   : Yes Format settings, ReFrames                : 4 frames Codec ID                                 : V_MPEG4/ISO/AVC Duration                                 : 1h 29mn Bit rate                                 : 6 495 Kbps Width                                    : 1 920 pixels Height                                   : 1 080 pixels Display aspect ratio                     : 16:9 Frame rate mode                          : Constant Frame rate                               : 23.976 (24000/1001) fps Original frame rate                      : 23.976 (23976/1000) fps Color space                              : YUV Chroma subsampling                       : 4:2:0 Bit depth                                : 8 bits Scan type                                : Progressive Bits/(Pixel*Frame)                       : 0.131 Stream size                              : 4.07 GiB (80%) Writing library                          : x264 core 142 r2479 dd79a61 Encoding settings                        : cabac=1 / ref=4 / deblock=1:-3:-3 / analyse=0x3:0x113 / me=umh / subme=7 / psy=1 / psy_rd=1.00:0.00 / mixed_ref=1 / me_range=16 / chroma_me=1 / trellis=1 / 8x8dct=1 / cqm=0 / deadzone=21,11 / fast_pskip=0 / chroma_qp_offset=-2 / threads=10 / lookahead_threads=1 / sliced_threads=0 / nr=0 / decimate=1 / interlaced=0 / bluray_compat=0 / constrained_intra=0 / bframes=3 / b_pyramid=2 / b_adapt=1 / b_bias=0 / direct=3 / weightb=1 / open_gop=0 / weightp=2 / keyint=250 / keyint_min=23 / scenecut=40 / intra_refresh=0 / rc_lookahead=40 / rc=crf / mbtree=1 / crf=20.0 / qcomp=0.60 / qpmin=0 / qpmax=69 / qpstep=4 / ip_ratio=1.40 / aq=1:1.00 Language                                 : English Default                                  : Yes Forced                                   : No Audio ID                                       : 2 Format                                   : DTS Format/Info                              : Digital Theater Systems Mode                                     : 16 Format settings, Endianness              : Big Codec ID                                 : A_DTS Duration                                 : 1h 29mn Bit rate mode                            : Constant Bit rate                                 : 1 509 Kbps Channel(s)                               : 6 channels Channel positions                        : Front: L C R, Side: L R, LFE Sampling rate                            : 48.0 KHz Frame rate                               : 93.750 fps (512 spf) Bit depth                                : 24 bits Compression mode                         : Lossy Stream size                              : 968 MiB (18%) Language                                 : English Default                                  : No Forced                                   : No

本站不提供任何下载。仅提供介绍,请支持正版。