[BT下载]一个很默瑞的圣诞节 2015.2160p.NF.WEBRip.x264.DD5.1-TrollUHD 15.28GB

本站不提供「[BT下载]一个很默瑞的圣诞节 2015.2160p.NF.WEBRip.x264.DD5.1-TrollUHD 15.28GB」下载,仅介绍「[BT下载]一个很默瑞的圣诞节 2015.2160p.NF.WEBRip.x264.DD5.1-TrollUHD 15.28GB」,一起来讨论吧,做个好影评。
[BT下载]一个很默瑞的圣诞节 2015.2160p.NF.WEBRip.x264.DD5.1-TrollUHD 15.28GB

[WEB-2016P] [2015] [欧美] [喜剧] [BT下载]一个很默瑞的圣诞节 2015.2160p.NF.WEBRip.x264.DD5.1-TrollUHD 15.28GB --> ◎译  名 一个很默瑞的圣诞节/比尔墨瑞欢度圣诞/一个很雷的圣诞节 ◎片  名 A Very Murray Christmas ◎年  代 2015 ◎国  家 美国 ◎类  别 喜剧/音乐 ◎语  言 英语 ◎上映日期 2015-12-04(美国) ◎IMDb评分  5.8/10 from 4,497 users ◎IMDb链接  http://www.imdb.com/title/tt4537842/ ◎豆瓣评分 6.2/10 from 246 users ◎豆瓣链接 http://movie.douban.com/subject/26420836/ ◎片  长 56分钟 ◎导  演 索菲亚·科波拉 Sofia Coppola ◎主  演 比尔·默瑞 Bill Murray 乔治·克鲁尼 George Clooney 拉什达·琼斯 Rashida Jones 麦莉·赛勒斯 Miley Cyrus 玛娅·鲁道夫 Maya Rudolph 朱丽叶·怀特 Julie White 迈克尔·塞拉 Michael Cera 珍妮·刘易斯 Jenny Lewis 艾米·波勒 Amy Poehler ◎简  介 《爱情不用翻译》苏菲亚科波拉与比尔墨瑞再次携手合作!比尔将在片中饰演他自己,并找来他的明星好友来参加他的圣诞电视特别节目,不过根据气象报导一场大风雪将向纽约袭来,比尔非常担心他的节目会因此开天窗。 ◎获奖情况 第22届美国演员工会奖 (2016) 电视奖 电视电影/迷你剧最佳男演员(提名) 比尔·默瑞 Video ID                                       : 1 Format                                   : AVC Format/Info                              : Advanced Video Codec Format profile                           : [email protected] Format settings, CABAC                   : Yes Format settings, ReFrames                : 5 frames Codec ID                                 : V_MPEG4/ISO/AVC Duration                                 : 56mn 31s Bit rate                                 : 37.3 Mbps Width                                    : 3 840 pixels Height                                   : 2 160 pixels Display aspect ratio                     : 16:9 Frame rate mode                          : Constant Frame rate                               : 23.976 (24000/1001) fps Color space                              : YUV Chroma subsampling                       : 4:2:0 Bit depth                                : 8 bits Scan type                                : Progressive Bits/(Pixel*Frame)                       : 0.188 Stream size                              : 14.7 GiB (96%) Writing library                          : x264 core 146 r2538 121396c Encoding settings                        : cabac=1 / ref=5 / deblock=1:-2:-2 / analyse=0x3:0x133 / me=umh / subme=10 / psy=1 / psy_rd=1.00:0.15 / mixed_ref=1 / me_range=48 / chroma_me=1 / trellis=2 / 8x8dct=1 / cqm=0 / deadzone=21,11 / fast_pskip=1 / chroma_qp_offset=-3 / threads=12 / lookahead_threads=2 / sliced_threads=0 / nr=0 / decimate=0 / interlaced=0 / bluray_compat=0 / constrained_intra=0 / bframes=8 / b_pyramid=2 / b_adapt=2 / b_bias=0 / direct=3 / weightb=1 / open_gop=0 / weightp=2 / keyint=240 / keyint_min=23 / scenecut=40 / intra_refresh=0 / rc_lookahead=60 / rc=crf / mbtree=1 / crf=18.0 / qcomp=0.70 / qpmin=0 / qpmax=69 / qpstep=4 / vbv_maxrate=300000 / vbv_bufsize=300000 / crf_max=0.0 / nal_hrd=none / filler=0 / ip_ratio=1.30 / aq=1:0.90 Language                                 : English Default                                  : Yes Forced                                   : No Audio ID                                       : 2 Format                                   : AC-3 Format/Info                              : Audio Coding 3 Mode extension                           : CM (complete main) Format settings, Endianness              : Big Codec ID                                 : A_AC3 Duration                                 : 56mn 31s Bit rate mode                            : Constant Bit rate                                 : 640 Kbps Channel(s)                               : 6 channels Channel positions                        : Front: L C R, Side: L R, LFE Sampling rate                            : 48.0 KHz Frame rate                               : 31.250 fps (1536 spf) Compression mode                         : Lossy Stream size                              : 259 MiB (2%) Language                                 : English Default                                  : Yes Forced                                   : No Text ID                                       : 3 Format                                   : UTF-8 Codec ID                                 : S_TEXT/UTF8 Codec ID/Info                            : UTF-8 Plain Text Language                                 : English Default                                  : Yes Forced                                   : No

本站不提供任何下载。仅提供介绍,请支持正版。