[BT下载]血腥拼图/血型拼图 Bloodwork.2012.1080p.BluRay.x264.DTS-FGT 3.58GB

本站不提供「[BT下载]血腥拼图/血型拼图 Bloodwork.2012.1080p.BluRay.x264.DTS-FGT 3.58GB」下载,仅介绍「[BT下载]血腥拼图/血型拼图 Bloodwork.2012.1080p.BluRay.x264.DTS-FGT 3.58GB」,一起来讨论吧,做个好影评。
[BT下载]血腥拼图/血型拼图 Bloodwork.2012.1080p.BluRay.x264.DTS-FGT 3.58GB

[更 早] [欧美] [动作] [BD-1080P] [BT下载]血腥拼图/血型拼图 Bloodwork.2012.1080p.BluRay.x264.DTS-FGT 3.58GB --> ◎译  名 血腥拼图/血型拼图(台)/血腥杰作/血腥工作/疑血追凶 ◎片  名 Blood Work ◎年  代 2002 ◎国  家 美国 ◎类  别 动作/犯罪/剧情/悬疑/惊悚 ◎语  言 英语/西班牙语 ◎上映日期 2002-08-06 ◎IMDb评分  6.4/10 from 34,023 users ◎IMDb链接  http://www.imdb.com/title/tt0309377/ ◎豆瓣评分 6.8/10 from 1,194 users ◎豆瓣链接 https://movie.douban.com/subject/1299549/ ◎BT之家整理 http://www.btbbt.cc ◎片  长 110 分钟 ◎导  演 克林特·伊斯特伍德 Clint Eastwood ◎主  演 克林特·伊斯特伍德 Clint Eastwood 杰夫·丹尼尔斯 Jeff Daniels 安杰丽卡·休斯顿 Anjelica Huston 旺达·德·杰索斯 Wanda De Jesus ◎简  介 近来,令罪犯们闻风丧胆的联邦调查局探员特瑞(克林特·伊斯特伍德 Clint Eastwood 饰)正在调查一个名为“密码杀手”的神秘人物,就在这个节骨眼上,突发的心脏病让特瑞不得不提前走下了工作岗位,在接受了心脏移植手术后,退休的特瑞选择远离危险的工作,来到了偏僻的乡下静养。 一转眼,两年过去了,一个名叫格莱夏埃拉(旺达·德·杰索斯 Wanda De Jesus 饰)的神秘女子的来访扰乱了特瑞平静的生活。原来,为特瑞提供心脏的是格莱夏埃拉的妹妹,巧合的是,她就是“密码杀手”手下诸多的受害者之一。以此为契机,特瑞重新开始了对于凶手的调查和追击,就在他逐渐接近真相的同时,危险也来到了他的身边。 Video ID                                       : 1 Format                                   : AVC Format/Info                              : Advanced Video Codec Format profile                           : [email protected] Format settings, CABAC                   : Yes Format settings, ReFrames                : 5 frames Codec ID                                 : V_MPEG4/ISO/AVC Duration                                 : 1h 39mn Bit rate                                 : 3 538 Kbps Width                                    : 1 920 pixels Height                                   : 824 pixels Display aspect ratio                     : 2.35:1 Frame rate mode                          : Constant Frame rate                               : 23.976 (24000/1001) fps Color space                              : YUV Chroma subsampling                       : 4:2:0 Bit depth                                : 8 bits Scan type                                : Progressive Bits/(Pixel*Frame)                       : 0.093 Stream size                              : 2.46 GiB (69%) Writing library                          : x264 core 133 r2334 a3ac64b Encoding settings                        : cabac=1 / ref=5 / deblock=1:-1:-1 / analyse=0x3:0x133 / me=umh / subme=7 / psy=1 / psy_rd=1.00:0.15 / mixed_ref=1 / me_range=16 / chroma_me=1 / trellis=1 / 8x8dct=1 / cqm=0 / deadzone=21,11 / fast_pskip=0 / chroma_qp_offset=-3 / threads=18 / lookahead_threads=3 / sliced_threads=0 / nr=0 / decimate=1 / interlaced=0 / bluray_compat=0 / constrained_intra=0 / bframes=3 / b_pyramid=2 / b_adapt=1 / b_bias=0 / direct=3 / weightb=1 / open_gop=0 / weightp=2 / keyint=240 / keyint_min=23 / scenecut=40 / intra_refresh=0 / rc_lookahead=40 / rc=crf / mbtree=1 / crf=20.0 / qcomp=0.60 / qpmin=10 / qpmax=51 / qpstep=4 / ip_ratio=1.40 / aq=1:1.00 Language                                 : English Default                                  : Yes Forced                                   : No Audio ID                                       : 2 Format                                   : DTS Format/Info                              : Digital Theater Systems Mode                                     : 16 Format settings, Endianness              : Big Codec ID                                 : A_DTS Duration                                 : 1h 39mn Bit rate mode                            : Constant Bit rate                                 : 1 509 Kbps Channel(s)                               : 2 channels Channel positions                        : Front: L R Sampling rate                            : 48.0 KHz Frame rate                               : 93.750 fps (512 spf) Bit depth                                : 24 bits Compression mode                         : Lossy Stream size                              : 1.05 GiB (29%) Language                                 : English Default                                  : No Forced                                   : No Menu 00:00:00.000                             : en:00:00:00.000 00:06:45.864                             : en:00:06:45.864 00:15:02.944                             : en:00:15:02.944 00:24:25.089                             : en:00:24:25.089 00:29:19.299                             : en:00:29:19.299 00:36:05.580                             : en:00:36:05.580 00:44:13.860                             : en:00:44:13.860 00:51:47.271                             : en:00:51:47.271 01:04:16.936                             : en:01:04:16.936 01:13:45.755                             : en:01:13:45.755 01:25:14.318                             : en:01:25:14.318 01:37:19.292                             : en:01:37:19.292

本站不提供任何下载。仅提供介绍,请支持正版。