[BT下载]无法呼吸/断了气 Breathless.2012.1080p.BluRay.x264.DD5.1-FGT 6.55GB

本站不提供「[BT下载]无法呼吸/断了气 Breathless.2012.1080p.BluRay.x264.DD5.1-FGT 6.55GB 」下载,仅介绍「[BT下载]无法呼吸/断了气 Breathless.2012.1080p.BluRay.x264.DD5.1-FGT 6.55GB 」,一起来讨论吧,做个好影评。
[BT下载]无法呼吸/断了气 Breathless.2012.1080p.BluRay.x264.DD5.1-FGT 6.55GB

[2012] [欧美] [惊悚] [BD-1080P] [BT下载]无法呼吸/断了气 Breathless.2012.1080p.BluRay.x264.DD5.1-FGT 6.55GB --> ◎译  名 无法呼吸/断了气 ◎片  名 Breathless ◎年  代 2012 ◎国  家 美国 ◎类  别 惊悚 ◎语  言 英语 ◎上映日期 2012-01-04 ◎IMDb评分  5.0/10 from 1,060 users ◎IMDb链接  http://www.imdb.com/title/tt2005164/ ◎豆瓣评分 3.5/10 from 19 users ◎豆瓣链接 https://movie.douban.com/subject/6874152/ ◎片  长 92分钟 ◎导  演 Jesse Baget ◎主  演 方·基默 Val Kilmer 吉娜·格申 Gina Gershon 凯莉·吉蒂什 Kelli Giddish 韦恩·杜瓦尔 Wayne Duvall 雷·利奥塔 Ray Liotta 理查德·雷西尔 Richard Riehle ◎简  介 这部惊悚片讲述一个女人(吉娜·格申 饰)厌倦了丈夫的罪行和犯罪计划,想要给他点颜色看看。方·基默出演丈夫,雷·利奥塔出演卷进这个事件的治安官。 Video ID                                       : 1 Format                                   : AVC Format/Info                              : Advanced Video Codec Format profile                           : [email protected] Format settings, CABAC                   : Yes Format settings, ReFrames                : 5 frames Codec ID                                 : V_MPEG4/ISO/AVC Duration                                 : 1h 31mn Bit rate                                 : 9 629 Kbps Width                                    : 1 920 pixels Height                                   : 816 pixels Display aspect ratio                     : 2.35:1 Frame rate mode                          : Constant Frame rate                               : 23.976 (24000/1001) fps Color space                              : YUV Chroma subsampling                       : 4:2:0 Bit depth                                : 8 bits Scan type                                : Progressive Bits/(Pixel*Frame)                       : 0.256 Stream size                              : 6.01 GiB (92%) Writing library                          : x264 core 125 r2208 d9d2288 Encoding settings                        : cabac=1 / ref=5 / deblock=1:0:0 / analyse=0x3:0x133 / me=umh / subme=7 / psy=1 / psy_rd=1.00:0.00 / mixed_ref=1 / me_range=16 / chroma_me=1 / trellis=1 / 8x8dct=1 / cqm=0 / deadzone=21,11 / fast_pskip=0 / chroma_qp_offset=-2 / threads=12 / lookahead_threads=2 / sliced_threads=0 / nr=0 / decimate=1 / interlaced=0 / bluray_compat=0 / constrained_intra=0 / bframes=3 / b_pyramid=2 / b_adapt=2 / b_bias=0 / direct=3 / weightb=1 / open_gop=0 / weightp=2 / keyint=250 / keyint_min=23 / scenecut=40 / intra_refresh=0 / rc_lookahead=50 / rc=2pass / mbtree=1 / bitrate=9629 / ratetol=1.0 / qcomp=0.60 / qpmin=0 / qpmax=69 / qpstep=4 / cplxblur=20.0 / qblur=0.5 / ip_ratio=1.40 / aq=1:1.00 Language                                 : English Default                                  : Yes Forced                                   : No Audio ID                                       : 2 Format                                   : AC-3 Format/Info                              : Audio Coding 3 Mode extension                           : CM (complete main) Format settings, Endianness              : Big Codec ID                                 : A_AC3 Duration                                 : 1h 31mn Bit rate mode                            : Constant Bit rate                                 : 640 Kbps Channel(s)                               : 6 channels Channel positions                        : Front: L C R, Side: L R, LFE Sampling rate                            : 48.0 KHz Frame rate                               : 31.250 fps (1536 spf) Compression mode                         : Lossy Stream size                              : 418 MiB (6%) Language                                 : English Default                                  : Yes Forced                                   : No Text ID                                       : 3 Format                                   : UTF-8 Codec ID                                 : S_TEXT/UTF8 Codec ID/Info                            : UTF-8 Plain Text Language                                 : English Default                                  : No Forced                                   : No Menu 00:00:00.000                             : en:00:00:00.000 00:02:27.397                             : en:00:02:27.397 00:08:56.327                             : en:00:08:56.327 00:17:20.039                             : en:00:17:20.039 00:25:32.990                             : en:00:25:32.990 00:34:36.783                             : en:00:34:36.783 00:45:04.785                             : en:00:45:04.785 00:51:21.203                             : en:00:51:21.203 01:01:39.821                             : en:01:01:39.821 01:08:01.828                             : en:01:08:01.828 01:20:10.931                             : en:01:20:10.931 01:28:19.711                             : en:01:28:19.711

本站不提供任何下载。仅提供介绍,请支持正版。